X-Men First Class DVDScreener XviD Español (2011) [FLS][UPS][WU]

Publicado por djmoheba89 viernes, 15 de julio de 2011





| X-Men Primera Generación | DVDSCR | XviD | 1.68 GB | Español | 1 Link | FLS | UPS | WP |





Título Original: X-Men First Class
Titulo Español: X-Men Primera Generación
País: Estados Unidos
Año: 2011
Director: Matthew Vaughn
Productores: Marvel Enterprises, Donners’ Company, Marv Films, Marvel Studios, Twentieth Century Fox Film Corporation, Bad Hat Harry Productions
Guionistas: Zack Stentz, Bryan Singer
Actores: Oliver Platt, Kevin Bacon, James McAvoy, Michael Fassbender, Jennifer Lawrence, January Jones
Género: Acción, Aventura, Drama, Ciencia Ficción
Duración: 1:31 min. aprox.
Web en español: http://www.xmenprimerageneracion.es
Web Oficial: http://www.x-menfirstclassmovie.com


Video

ID : 0
Format : MPEG-4 Visual
Format profile : Advanced Simple@L5
Format settings, BVOP : 2
Format settings, QPel : No
Format settings, GMC : No warppoints
Format settings, Matrix : Default (MPEG)
Codec ID : XVID
Codec ID/Hint : XviD
Duration : 2h 6mn
Bit rate : 1 766 Kbps
Width : 720 pixels
Height : 304 pixels
Display aspect ratio : 2.35:1
Frame rate : 25.000 fps
Color space : YUV
Chroma subsampling : 4:2:0
Bit depth : 8 bits
Scan type : Progressive
Compression mode : Lossy
Bits/(Pixel*Frame) : 0.323
Stream size : 1.56 GiB (93%)
Writing library : XviD 63

Audio

ID : 1
Format : MPEG Audio
Format version : Version 1
Format profile : Layer 3
Codec ID : 55
Codec ID/Hint : MP3
Duration : 2h 6mn
Bit rate mode : Constant
Bit rate : 128 Kbps
Channel(s) : 2 channels
Sampling rate : 48.0 KHz
Compression mode : Lossy
Stream size : 116 MiB (7%)
Alignment : Aligned on interleaves
Interleave, duration : 40 ms (1.00 video frame)
Interleave, preload duration : 504 ms
Writing library : LAME3.98r
Encoding settings : -m s -V 4 -q 3 -lowpass 17 -b 128




Antes de que Charles Xavier y Erik Lensherr tomaran los nombres de Profesor X y Magneto, eran dos jóvenes descubriendo sus poderes por primera vez. Antes de que fueran archienemigos, fueron los amigos mejor avenidos, trabajando juntos con otros mutantes (algunos familiares, otros nuevos) para detener la mayor amenaza que el mundo jamás haya conocido. En aquél proceso, una fisura se abrió entre ellos, la cual originó la eterna guerra entre la Hermandad de Magneto y los X-Men del Profesor X.































OPCIONES PARA DESCARGAR:



APROVECHEN AHORA, LINK FUNCIONANDO AL 100%


DESCARGA EL BLOCK DE NOTAS
DENTRO CONTIENEN LOS LINKS ORIGINALES

OPCION 01:
http://www.megaupload.com/?d=SY2BXTQR



OPCION 02:
http://www.multiupload.com/JJ8JUGJS9F















- DEJANOS TU COMENTARIO -

0 comentarios

Publicar un comentario

Lo Mas DESCARGADO en TEAM MOHEBA

MUSICA REMIX OCTUBRE (2012)

MusicaRemix Septiembre (2012)

Musica Remix Agosto 2012

Musica Remix Julio 2012

Musica Remix Junio 2012

Musica Remix Mayo 2012

Musica Remix Abril 2012

Musica Remix Marzo 2012

MusicaRemix Febrero 2012

MusicaRemix ANUAL 2011 ( COMPLETO )

MusicaRemix ANUAL 2010 ( COMPLETO )

SIGUENOS ( TEAM MOHEBA MIEMBROS )